古哥论坛

 找回密码
 注册(分享大片)
查看: 9847|回复: 1100
打印 上一主题 下一主题

[动作] [大轰炸/重庆大轰炸]Air.Strike.2018.1080p.WEB-DL.DD5.1.H264-FGT 3.3G

  [复制链接]
跳转到指定楼层
1#
发表于 2018-10-27 22:45:31 | 只看该作者 回帖奖励 |倒序浏览 |阅读模式
4K天堂

£译  名 大轰炸/ 重庆大轰炸
£片  名 Air Strike/The Bombing/Unbreakable Spirit
£年  代 2017
£国  家 中国
£类  别 动作/战争/历史
£语  言 英语
£IMDb评分 7.1/10 from 77 users
£IMDB链?#21360;?a href="https://www.imdb.com/title/tt4743226/" target="_blank">https://www.imdb.com/title/tt4743226/
£片  长 1 h 36 min
£导  演 萧锋 Feng Xiao
£主  演 刘烨 Ye Liu
      布鲁斯,威利斯 Bruce Willis
      宋承宪 Seung-heon Song
      陈伟霆 William Chan
      范伟 Wei Fan
      马苏 Su Ma
      车永莉 Yongli Che
      吴刚 Gang Wu
      冯远征 Yuanzheng Feng
      张钧甯 Chun-Ning Chang
      耿乐 Le Geng
      谢霆锋 Nicholas Tse
      范冰冰 Bingbing Fan
      陈道明 Daoming Chen
      艾德里安,布洛迪 Adrien Brody
      雷佳 Jia Lei
      涩谷天马 Tenma Shibuya
      张帆 Fan Zhang
      任达华 Simon Yam
      吕良伟 Ray Lui
      胡兵 Hu Bing
      黄海冰 Haibing Huang
      拉莫,威利斯 Rumer Willis
      刘晓庆 Xiaoqing Liu
      曹可凡 Kefan Cao
      黄圣依 Eva Huang
      ?#35825;?#28059; Kenny Bee
      爱新觉罗,启星 Qixing Aisin-Gioro
      汪东城 Jiro Wang




£简  介 
  1937年?#35895;?#25112;争爆发继淞沪战争失利南京吃紧。中华民族危急存亡之际国民ZF宣布迁都重庆?#31449;?#20174;1938年2月18日至1944年12月19日对重庆及周边地区实施无差别轰炸长达六年零十个月。重庆市民面对?#31449;?#27531;酷的狂轰滥炸依然向死而生、乐观坚强展?#33267;?#37325;庆不死中国不亡的民族气节。为了保卫家园年轻的中国飞行员在美国飞行教官的帮助下与日本?#31449;?#23637;开了一系列惨烈悲?#36710;?#31354;战。虽然飞行装备远远落后于?#31449;?#20294;他们宁愿战死在天上也不在地上苟活与敌人在长?#25112;?#34892;殊?#21862;?#26007;´´

Video
ID : 1
Format : AVC
Format/Info : Advanced Video Codec
Format profile : [email protected]
Format settings : CABAC / 5 Ref Frames
Format settings, CABAC : Yes
Format settings, ReFrames : 5 frames
Codec ID : V_MPEG4/ISO/AVC
Duration : 1 h 36 min
Bit rate : 4 514 kb/s
Width : 1 908 pixels
Height : 792 pixels
Display aspect ratio : 2.40:1
Frame rate mode : Constant
Frame rate : 23.976 (24000/1001) FPS
Color space : YUV
Chroma subsampling : 4:2:0
Bit depth : 8 bits
Scan type : Progressive
Bits/(Pixel*Frame) : 0.125
Stream size : 3.05 GiB (92%)
Title : Air.Strike.2018.1080p.WEB-DL.DD5.1.H264-FGT
Language : English
Default : Yes
Forced : No
Color range : Limited
Color primaries : BT.709
Transfer characteristics : BT.709
Matrix coefficients : BT.709

Audio
ID : 2
Format : AC-3
Format/Info : Audio Coding 3
Commercial name : Dolby Digital
Codec ID : A_AC3
Duration : 1 h 36 min
Bit rate mode : Constant
Bit rate : 384 kb/s
Channel(s) : 6 channels
Channel layout : L R C LFE Ls Rs
Sampling rate : 48.0 kHz
Frame rate : 31.250 FPS (1536 SPF)
Bit depth : 16 bits
Compression mode : Lossy
Stream size : 266 MiB (8%)
Title : Air.Strike.2018.1080p.WEB-DL.DD5.1.H264-FGT
Language : English
Service kind : Complete Main
Default : Yes
Forced : No









领取双11红包,支持一下论坛https://s.click.taobao.com/G0AZELw


游客如果您要查看本帖隐藏内容请回复如果您想无广告、免回复、下载附件免影视币请开通VIPVIP传送门
提示如迅雷下载提示"任务出错"、"因版权无法下载"请更换‐迅雷5/提取码: ai7u
古哥影视论坛www.07095838.com 高清电影,蓝光电影,最新电影,电影天堂,影视帝国,人人影视
点我免费领影视币
2#
发表于 2018-10-27 22:50:54 | 只看该作者
这个不能去电影院看坚决抵制所以这里看
古哥影视论坛www.07095838.com 高清电影,蓝光电影,最新电影,电影天堂,影视帝国,人人影视
点我免费领影视币
回复 支持 反对

使用道具 举报

3#
发表于 2018-10-27 22:51:15 | 只看该作者
这电影国内看不到了赶紧下载
古哥影视论坛www.07095838.com 高清电影,蓝光电影,最新电影,电影天堂,影视帝国,人人影视
点我免费领影视币
回复 支持 反对

使用道具 举报

4#
发表于 2018-10-27 22:53:38 | 只看该作者
这电影国内看不到了
古哥影视论坛www.07095838.com 高清电影,蓝光电影,最新电影,电影天堂,影视帝国,人人影视
点我免费领影视币
回复 支持 反对

使用道具 举报

5#
发表于 2018-10-27 22:54:34 | 只看该作者
不能去电影院。。。。。。。。。。。。。。。。
古哥影视论坛www.07095838.com 高清电影,蓝光电影,最新电影,电影天堂,影视帝国,人人影视
点我免费领影视币
回复 支持 反对

使用道具 举报

6#
发表于 2018-10-27 22:55:58 | 只看该作者
这个电影在电影院不知道能放?#38472;?
古哥影视论坛www.07095838.com 高清电影,蓝光电影,最新电影,电影天堂,影视帝国,人人影视
点我免费领影视币
回复 支持 反对

使用道具 举报

7#
发表于 2018-10-27 22:57:12 | 只看该作者
多洗楼主分享。。
古哥影视论坛www.07095838.com 高清电影,蓝光电影,最新电影,电影天堂,影视帝国,人人影视
点我免费领影视币
回复 支持 反对

使用道具 举报

8#
发表于 2018-10-27 22:57:38 | 只看该作者
非常想看一下
古哥影视论坛www.07095838.com 高清电影,蓝光电影,最新电影,电影天堂,影视帝国,人人影视
点我免费领影视币
回复 支持 反对

使用道具 举报

9#
发表于 2018-10-27 22:58:34 | 只看该作者
好东西分享   谢谢楼主
古哥影视论坛www.07095838.com 高清电影,蓝光电影,最新电影,电影天堂,影视帝国,人人影视
点我免费领影视币
回复 支持 反对

使用道具 举报

10#
发表于 2018-10-27 23:00:02 | 只看该作者

好东西,谢谢楼主分享!
古哥影视论坛www.07095838.com 高清电影,蓝光电影,最新电影,电影天堂,影视帝国,人人影视
点我免费领影视币
回复 支持 反对

使用道具 举报

11#
发表于 2018-10-27 23:00:25 | 只看该作者
感谢楼主分享
古哥影视论坛www.07095838.com 高清电影,蓝光电影,最新电影,电影天堂,影视帝国,人人影视
点我免费领影视币
回复 支持 反对

使用道具 举报

12#
发表于 2018-10-27 23:00:30 | 只看该作者
这个片子怎么回事
古哥影视论坛www.07095838.com 高清电影,蓝光电影,最新电影,电影天堂,影视帝国,人人影视
点我免费领影视币
回复 支持 反对

使用道具 举报

13#
发表于 2018-10-27 23:01:06 | 只看该作者
感谢楼主分享
古哥影视论坛www.07095838.com 高清电影,蓝光电影,最新电影,电影天堂,影视帝国,人人影视
点我免费领影视币
回复 支持 反对

使用道具 举报

14#
发表于 2018-10-27 23:05:33 | 只看该作者
谢谢分享啊
古哥影视论坛www.07095838.com 高清电影,蓝光电影,最新电影,电影天堂,影视帝国,人人影视
点我免费领影视币
回复 支持 反对

使用道具 举报

15#
发表于 2018-10-27 23:08:26 | 只看该作者
多谢分享了
古哥影视论坛www.07095838.com 高清电影,蓝光电影,最新电影,电影天堂,影视帝国,人人影视
点我免费领影视币
回复 支持 反对

使用道具 举报

16#
发表于 2018-10-27 23:15:15 | 只看该作者
冰冰的热点作品 收了 谢谢
古哥影视论坛www.07095838.com 高清电影,蓝光电影,最新电影,电影天堂,影视帝国,人人影视
点我免费领影视币
回复 支持 反对

使用道具 举报

17#
发表于 2018-10-27 23:18:20 | 只看该作者
有资源看下也不错
古哥影视论坛www.07095838.com 高清电影,蓝光电影,最新电影,电影天堂,影视帝国,人人影视
点我免费领影视币
回复 支持 反对

使用道具 举报

18#
发表于 2018-10-27 23:23:29 | 只看该作者
电别国别加?#29992;次?#34516;
古哥影视论坛www.07095838.com 高清电影,蓝光电影,最新电影,电影天堂,影视帝国,人人影视
点我免费领影视币
回复 支持 反对

使用道具 举报

19#
发表于 2018-10-27 23:25:02 | 只看该作者
感谢楼主的分享
古哥影视论坛www.07095838.com 高清电影,蓝光电影,最新电影,电影天堂,影视帝国,人人影视
点我免费领影视币
回复 支持 反对

使用道具 举报

20#
发表于 2018-10-27 23:29:59 | 只看该作者

谢谢楼主分享
古哥影视论坛www.07095838.com 高清电影,蓝光电影,最新电影,电影天堂,影视帝国,人人影视
点我免费领影视币
回复 支持 反对

使用道具 举报

您需要登录后才可以回帖 登录 | 注册(分享大片)

本版积分规则

影视帝国免责声明
本站提供网上学习交流和自由讨论使用,所有资源均来自互联网公开渠道,发布和个?#25628;?#35770;并不代表本站立场,本站不负任何责任.
如发现有侵权行为,请与我们联系.我们将立刻从网站上删除并向所有持版权者致最深歉意.
影视帝国论坛已经安全运行

QQ|小黑屋|?#21482;?#29256;|Archiver|古哥论坛 ( 苏ICP备12074540号 )

GMT+8, 2019-5-25 02:06 , Processed in 0.247702 second(s), 24 queries , Gzip On.

Powered by Discuz! X3.2

© 2001-2013 Comsenz Inc.

快速回复 返回顶部 返回列表
帽典針